#TITLE:Fire;
#SUBTITLE:Expi3nze;
#ARTIST:2NE1;
#TITLETRANSLIT:;
#SUBTITLETRANSLIT:;
#ARTISTTRANSLIT:;
#CREDIT:;
#BANNER:bn.png;
#BACKGROUND:bg.png;
#LYRICSPATH:;
#CDTITLE:;
#MUSIC:Fires.mp3;
#OFFSET:-0.256;
#SAMPLESTART:100.000;
#SAMPLELENGTH:12.000;
#SELECTABLE:YES;
#BPMS:0.000=126.000;
#STOPS:;
#BGCHANGES:;
// cache tags:
#FIRSTBEAT:0.500;
#LASTBEAT:301.000;
#SONGFILENAME:Songs/Super Dancer Online/F-ire(2NE1)/Fires.sm;
#HASMUSIC:1;
#HASBANNER:1;
#MUSICLENGTH:149.737;
// end cache tags

//---------------dance-single - ----------------
#NOTES:
     dance-single:
     :
     Hard:
     16:
     0.998,0.905,1.000,0.307,0.364,622.000,370.000,46.000,0.000,108.000:
0000
0001
1000
0010
0100
0002
2000
0000
,
0000
0000
0000
0000
0110
0000
0000
0100
0000
0000
3113
0000
1001
0000
0000
0110
,
0000
0000
1001
0000
0011
0000
0000
1010
0000
0000
0101
0000
0220
0000
0000
0000
,
0330
0000
1000
0001
1100
0000
0000
1001
0000
0000
0101
0000
1010
0000
0000
0101
,
0000
0000
0110
0000
1001
0000
0000
0101
0000
0000
0110
0000
2002
0000
0000
0000
,
3003
0000
0100
0010
1000
0000
0010
0001
1010
0100
0001
0000
1010
0000
0001
0000
,
1001
0000
0000
0110
1000
0001
0000
0001
1010
0000
0101
0000
1001
0000
0000
0110
,
1100
0000
0011
0000
1010
0000
0000
0101
0000
0000
0220
0000
1000
0000
0000
0000
,
1000
0000
0001
0000
1331
0000
0000
0110
0000
0000
2012
0100
0010
0000
0010
0000
,
0100
0000
0100
0000
3113
0000
0000
0011
1000
0000
0011
0000
1010
0000
0000
0101
,
1000
0000
0110
0000
0011
0000
1100
0000
0001
0000
1001
0000
1010
0000
0101
0001
,
0110
0000
1000
1000
0101
0000
0000
1010
0001
0000
0110
0000
1001
0000
0000
0110
,
1000
0011
1100
1001
0101
1010
0110
1001
,
0011
0000
1001
0000
0011
0000
0000
1001
0100
0000
0110
0000
0101
0000
0000
1010
,
0100
0000
0110
0000
0011
0000
1100
0000
0001
0000
1001
0000
1010
0000
0101
0100
,
1001
0000
1000
1000
0011
0000
0000
1001
0100
0000
0220
0000
0001
0000
0000
1000
,
0001
0000
1000
0000
1331
0000
0000
0110
1001
0000
2012
0100
0110
0100
0010
0010
,
0110
0010
0100
0100
3013
0000
0110
0000
1000
0000
1001
0000
0101
0000
1010
0000
,
0011
1100
0110
1001
0110
1001
1000
0011
,
1100
1001
1100
1100
1001
0110
0011
1100
,
0110
1001
0101
1010
0110
1001
1000
1001
,
1001
1001
0220
0000
1331
0011
1010
0101
,
1001
0110
0011
1100
1000
1001
0001
1100
,
1100
0000
0011
0000
1001
0000
0000
0110
0001
0000
2102
0000
0010
0000
0010
0000
,
0100
0000
0010
0000
3113
0000
0010
1001
0100
0000
0221
1000
0001
0000
0001
0001
,
1000
0000
1000
0001
1330
0000
1000
0000
0011
0000
0001
0000
0100
0000
0010
0000
,
1001
1000
0011
1100
1001
0110
1000
1001
,
0011
1100
0001
0001
1100
1000
0010
0100
,
1001
0001
1100
0011
1001
0110
1000
1001
,
1001
0000
0110
0000
1000
0000
0000
0001
1100
0000
0010
0000
0001
0000
0000
0100
,
0011
0000
1000
0000
1001
0000
0000
0010
1100
0000
0100
0000
0011
0000
1100
0000
,
0110
0000
1001
0000
1100
0000
0000
0011
1000
0000
2002
0000
0100
0000
0000
0000
,
0010
0000
0110
0000
3113
0000
0000
0110
1000
0000
2012
0010
0100
0100
0010
0000
,
0100
0100
0010
0100
3013
0100
0010
0100
0011
1000
0010
0100
0001
1000
0001
1000
,
0110
0010
0100
0010
1000
0100
0010
0001
1100
0001
0010
0100
0001
0010
0100
1000
,
0011
1000
0100
0010
1100
0000
0000
0011
1000
0000
1001
0000
0101
0000
0000
1010
,
0100
0000
0110
0000
0011
0000
0000
1100
0010
0000
0110
0000
0000
0000
0110
0000
,
1001
0000
1001
0000
1010
0000
0000
0110
0001
0000
1001
0000
0110
0000
0000
0000
,
0011
0000
1100
0000
0101
0000
0000
1010
0100
0000
0110
0000
1001
0000
1100
0000
,
0011
1100
0001
1001
1100
0011
1001
0110
,
0110
0000
1001
0000
1100
0000
0000
0011
1000
0000
1002
1000
0100
0000
0010
0000
,
1000
0000
0010
0010
2103
0000
0011
0000
3100
0000
0110
0000
0011
0000
1100
0000
,
0001
1001
0220
0000
1331
0110
0000
1100
,
0011
1100
0001
0001
1100
1000
0010
0010
,
0110
0100
2002
0000
3113
0010
1000
1001
,
0011
1100
0101
1010
0110
1001
0100
0110
,
1100
0011
1001
1001
0110
1001
1000
0011
,
1100
0000
0011
0000
1001
0000
0000
0110
1001
0000
2002
0000
0010
0000
0100
0000
,
0010
0000
0110
0000
3113
0000
0000
1100
0000
0000
0011
0000
0000
0100
0100
0010
,
1000
0000
0001
0000
1100
0000
0000
0010
0100
0000
0110
0000
0011
0000
0000
1000
,
0010
0110
1010
0101
1000
1001
0011
1100
,
1001
0000
0001
0001
0110
0000
0000
0100
0010
0000
0110
0000
1001
0000
0000
1000
,
0001
1001
0110
1001
1100
0011
1010
0101
,
0110
0000
1001
0000
0100
0000
0000
0010
1000
0000
1001
0000
0010
0000
0000
0100
,
0010
0110
1100
0011
0100
0110
1010
0101
,
0110
0000
1000
1000
0011
0000
0000
0001
0100
0000
0220
0000
1000
0000
1001
0000
,
0001
0000
1000
0000
2331
0000
0100
0001
0010
0000
0102
0000
0010
0010
0100
0100
,
0010
0010
0100
0100
3113
0000
0000
0000
1001
0000
1000
0000
1001
0000
0001
0000
,
1100
0000
0011
0000
1001
0000
0000
1001
0000
0000
0110
0000
0000
0000
0001
0000
,
0110
0010
0011
1100
1100
0011
0110
1001
,
1001
0000
1001
0000
0101
0000
0000
1010
0000
0000
1001
0000
0100
0000
0110
0000
,
0110
1001
1100
0011
0011
1100
1001
0110
,
1001
0000
0110
0000
1010
0000
0000
0101
0000
0000
0110
0000
1000
0000
1001
0000
,
1001
0000
0110
0000
1001
0000
0011
1000
0110
0000
2001
0000
0010
0000
0101
0000
,
0011
0000
0001
0000
3110
0000
0000
1001
0000
0000
1001
0000
0000
0000
0000
0000
,
0210
0000
0000
0000
0311
0000
0000
1000
0110
0000
1000
0000
0002
0000
0000
0000
,
1100
0000
1003
0000
0010
0000
0000
0100
1001
0000
1000
0000
0020
0000
0000
0000
,
1100
0000
1030
0001
0110
0000
0000
0100
1001
0000
1000
0000
0002
0000
0000
0000
,
1100
0000
0103
0000
1010
0000
0000
1000
0110
0000
0010
0000
2001
0000
0011
0000
,
0011
0000
3100
0010
1001
0000
0110
0000
1100
0000
0011
0000
0100
0000
0110
0000
,
0110
1001
1100
0011
0110
1001
0100
0110
,
0110
0000
0110
0000
1001
0000
0000
0110
1001
0000
0220
0000
1000
0000
0001
0000
,
1001
0000
1000
0000
1331
0000
0000
0110
1001
0000
2012
0010
0100
0000
0010
0010
,
0100
0000
0010
0010
3103
0000
0110
0000
0001
0000
1001
0000
1000
0000
0011
0000
,
1001
0000
0110
0000
1010
0000
0000
0101
0011
0000
1100
1000
0001
0000
0100
0000
,
0010
0100
1111
0000
0000
0000
0000
0000
,
0000
0000
0000
0000
,
0000
0000
0000
0000
,
0000
0000
0000
0000
;
